#TITLE:Holy War;
#SUBTITLE:;
#ARTIST:Iron Mask;
#TITLETRANSLIT:;
#SUBTITLETRANSLIT:;
#ARTISTTRANSLIT:;
#CREDIT:;
#BANNER:BN.png;
#BACKGROUND:BG.png;
#LYRICSPATH:;
#CDTITLE:CDTitle.gif;
#MUSIC:01 - Iron Mask - Holy War.mp3;
#OFFSET:-0.345;
#SAMPLESTART:61.748;
#SAMPLELENGTH:12.000;
#SELECTABLE:YES;
#BPMS:0.000=206.000;
#STOPS:;
#BGCHANGES:;
// cache tags:
#FIRSTBEAT:0.000;
#LASTBEAT:1052.000;
#SONGFILENAME:Songs/Music V.I.P ^_^/Holy War - Iron Mask/Holy War.sm;
#HASMUSIC:1;
#HASBANNER:1;
#MUSICLENGTH:311.771;
// end cache tags

//---------------dance-single - Blank----------------
#NOTES:
     dance-single:
     Blank:
     Hard:
     13:
     1.000,1.000,1.000,0.606,0.805,2415.000,474.000,189.000,0.000,0.000:

0110
1000
0001
0100
0001
0010
0011
1100
,
0101
0010
1000
0100
1100
0110
1001
0101
,
1100
0010
0100
0001
0100
1000
0110
0011
,
1100
0010
0001
1000
0101
1100
1001
0110
,
1010
0100
0010
1000
0110
0101
1010
1100
,
1001
0010
1000
0001
1100
0101
1100
0011
,
1001
0100
1000
0010
1001
0001
1000
0100
,
0010
0001
0010
0100
0010
1000
0010
0001
,
0010
0100
0010
0001
1020
1000
1000
1030
,
0110
0001
1000
0010
1000
0100
1000
0010
,
2000
0100
0001
3010
0001
1000
0001
0100
,
0002
0100
1000
0103
1000
0010
1000
0001
,
2000
0100
0010
3001
0010
1000
0010
0001
,
0020
1000
0100
0031
0100
0010
0100
1000
,
0200
1000
0001
0310
0001
1000
0001
0100
,
0002
0100
0010
1003
0010
0001
0010
0100
,
0010
0001
0010
1000
0010
0100
0010
0001
,
0010
0000
1000
0000
0010
0000
0100
0000
0010
0100
0010
0100
0010
0100
0010
0100
,
0010
1000
0100
1000
0100
0010
0100
0001
,
0200
0010
1000
0301
1000
0010
1000
0001
,
2000
0001
0100
3010
0100
1000
0100
0001
,
0200
0010
0001
1300
0001
1000
0001
0100
,
0002
0100
0010
1003
0010
0001
0010
1000
,
0020
0100
1000
0031
1000
0100
1000
0010
,
2000
0001
0100
3001
0100
0010
0100
1000
,
0001
1000
0001
0100
0001
0100
0001
1000
,
0001
0000
0100
0000
0001
0000
0010
0000
0002
0000
0000
0000
0000
0000
0000
0003
,
0110
0000
2002
0000
,
0000
0000
0000
0000
3003
0000
0010
0100
0010
0000
0000
0000
0000
0000
1000
0010
,
0100
0001
0100
0010
1000
0100
0010
0001
0100
0010
1000
0100
1000
0010
0100
0001
,
0010
0001
1000
0010
1000
0100
0010
0001
0100
0010
2000
0000
3200
0000
0000
0000
,
0000
0000
0000
0000
0000
0000
0000
0300
1001
0000
1001
0000
0110
0000
1000
0000
,
0101
0000
0010
0000
1100
0000
0010
0000
1001
0100
0010
0001
0100
0010
0100
0001
,
0010
0001
1000
0010
1000
0100
0010
0001
0100
0010
0100
0001
0010
0100
0010
0001
,
2000
0000
0000
0000
,
3200
0000
0000
0000
1000
1000
0000
0000
,
1300
0000
0000
0010
0000
0000
1000
0100
0010
0001
0100
0010
1000
0100
0010
0100
1000
0001
0100
0010
1000
0010
0100
0001
,
0020
0000
0000
0000
0000
0000
0000
0000
0000
0000
0000
0000
0000
0000
0000
0000
0000
0000
0000
0000
0000
0030
0000
0000
1100
0000
0000
0000
0010
0000
0000
0000
0001
0000
0000
0000
0110
0000
0000
0000
1000
0000
0000
0000
0001
0000
0000
0000
,
1100
0010
0001
1010
0100
1000
0101
0010
1000
0110
0001
0100
,
2002
0000
0000
0000
0000
0000
0000
0000
0000
0000
3003
0000
0110
0000
0000
1000
0000
0000
0101
0000
0000
0010
0000
0000
,
1100
0010
0110
0001
1010
0001
0110
1000
,
1001
0100
1010
0001
0100
0010
0110
1000
,
0101
0001
0110
1000
1010
0100
1001
0001
,
0011
0100
1010
0001
0100
0010
1100
0100
,
1010
0001
0011
0100
1010
0100
0011
0010
,
1100
0000
0100
0000
1001
0000
0000
0000
0110
0001
1000
0010
0100
0001
0010
0001
,
0100
0010
1000
0010
0100
0001
0010
0100
1001
0000
0100
1000
0011
0000
0100
0000
,
1001
0001
0110
1000
0101
0010
0011
0100
,
0101
0000
1000
0000
0110
0000
1000
0001
0100
0000
0010
0000
1100
0000
0010
0000
,
0101
1000
1100
0001
1001
0100
0110
0001
,
0011
0000
1000
0000
0101
0000
1000
0100
0010
0000
0001
0000
1100
0000
0010
0000
,
1001
0100
1100
0010
1010
0001
0110
1000
,
0011
0000
0100
0000
1001
0000
0000
0000
0100
0010
1000
0100
1000
0001
0100
0001
,
0010
0000
0000
0000
0100
0000
0000
0000
0010
0000
0000
0000
0001
0000
0000
0000
1000
0000
0000
0000
0010
0000
0000
0000
0100
0000
0000
0001
0000
0000
0100
0000
0000
0001
0000
0000
0100
0000
0000
0001
0000
0000
0100
0000
0000
0001
0000
0000
,
0100
0001
0100
0001
0100
0001
0100
0001
0100
0001
0100
0001
0100
0001
0100
0001
,
2200
0000
0000
3300
0220
0000
0000
0330
1000
0001
1000
0001
1000
0001
1000
0001
,
1000
0001
1000
0001
1000
0001
1000
0001
1000
0001
1000
0001
1000
0001
1000
0001
,
0220
0330
2020
3030
2002
0000
0000
3003
0010
0100
0010
0100
1010
0000
1010
0100
,
0010
0100
0010
0100
0011
0000
0011
0100
0010
0100
0010
0100
1001
0000
1001
0000
,
0202
0000
0000
0303
2020
0000
0000
3030
0001
0100
0010
1000
0010
0100
0001
0010
,
0100
0010
0001
1000
0100
1000
0001
0100
0001
0010
0100
1000
0010
0100
0001
0010
,
1200
0300
1020
0030
0102
0000
1000
0003
0110
0001
1000
0010
1000
0100
0010
0100
,
1000
0001
0100
0010
0100
0001
0010
0001
0100
0010
1000
0100
0010
0001
0100
0010
,
2002
0000
0000
3003
0202
0000
0000
0303
0110
1000
0100
1000
0001
0100
0001
0010
,
0100
0010
0001
1000
0100
0010
0001
0010
0100
1000
0010
1000
0100
0010
0001
1000
,
0022
0033
2020
3030
0220
0000
0000
0330
1001
0010
0100
0010
0001
0100
0010
1000
,
0100
0010
0100
1000
0001
0100
0010
0100
0001
1000
0001
0010
0100
0010
0001
1000
,
0202
0000
0000
0303
0022
0000
0000
0033
0110
1000
0001
1000
0010
0100
0001
0010
,
0100
1000
0001
0100
0001
1000
0100
1000
0001
0100
0001
1000
0010
1000
0100
0010
,
0202
0303
2020
3030
2002
0000
0000
3003
0110
0000
1000
0000
1010
0000
0100
0000
,
0011
1000
1010
0100
0011
0100
1001
0001
,
1100
0001
1100
0010
0001
1000
0011
0100
,
1001
0001
0101
1000
0110
0001
1010
0100
,
0110
1000
0011
0100
1000
0010
0101
0010
,
0011
0100
1100
0010
1001
0100
0101
0010
,
1100
0000
1000
0000
0011
0000
0100
0000
2020
0000
0000
3030
0202
0000
0000
0303
,
0022
0000
0000
0033
0220
0000
0000
0330
2020
0000
0000
0000
0000
0000
0000
3030
,
0101
0000
0000
0000
1000
0100
1010
0101
,
0011
0100
1010
0100
1100
0010
1001
0001
,
1100
0010
0110
0001
1000
0010
1100
0001
,
0011
0100
0101
0010
1001
0100
0110
1000
,
0101
1000
0110
0010
0100
1000
0101
0010
,
1100
0001
0011
1000
1001
0100
1010
0100
,
0011
0000
0001
0000
1100
0000
0010
0000
2100
0000
0010
3000
0201
0000
0010
0300
,
2001
0000
0100
3000
0012
0000
1000
0003
0120
0000
1000
0000
0001
0000
0100
0030
,
1200
0000
0001
0000
1000
0000
0010
0300
2001
0000
0010
0000
0100
0000
0001
0000
,
0100
0000
0010
0000
0100
0000
0010
3000
0101
0000
1000
0000
0010
0000
1000
0000
,
0010
0001
0010
1000
0011
0100
1001
0100
,
0110
0001
1010
0001
0110
1000
0100
0010
,
1001
0010
0001
1000
0110
1000
0011
0100
,
1010
0100
1010
0001
0011
1000
0100
1000
,
0011
0100
1000
0010
1100
0010
1001
0100
,
0110
1000
0101
0010
0011
0100
1000
0010
,
0100
0001
1100
0010
0101
2000
3200
0320
,
0230
0000
2300
0000
3002
0000
0203
0300
0011
0000
1000
0000
0010
0000
0100
0000
,
0010
1000
0100
0001
0110
1000
0010
0100
,
1001
0001
1010
0100
0011
0100
1000
0010
,
1100
0010
0001
1000
0011
0100
0110
1000
,
1010
0100
1001
0010
1100
0010
0001
1000
,
0101
0010
0001
1000
1100
0010
1010
0100
,
1001
0010
0110
0001
1010
0100
0010
0001
,
0010
0100
1010
0100
0201
1300
0020
0130
,
0002
0000
0013
0000
0200
0000
1300
0000
0202
0000
0000
0000
0000
0303
1010
0000
,
0110
0000
0000
0000
0100
0000
0001
0000
2020
0000
0000
0000
0000
3030
1100
0000
,
0011
0000
0000
0000
0100
0000
0000
0000
0110
0001
1000
0010
1000
0100
0010
0100
,
1000
0001
0100
0010
1000
0001
0010
0001
1000
0010
1000
0001
0010
0001
0100
0010
,
1000
0100
1000
0001
0100
0001
1000
0100
0010
0100
1000
0001
1000
0010
0100
0010
,
1000
0001
0100
0001
1000
0010
0100
0010
1000
0001
0010
0100
0010
0001
1000
0100
,
0010
0001
0100
0010
1000
0100
0010
0001
1000
0000
0010
0000
0100
0000
0010
0000
,
1000
0100
0010
0100
1000
0001
0100
0010
,
0100
0001
0010
0100
1000
0010
1000
0100
0022
0000
0000
0000
0000
0033
0101
0000
,
0110
0000
0000
0000
1000
0000
0100
0000
2002
0000
0000
0000
0000
3003
0101
0000
,
1010
0000
0000
0000
0001
0000
0000
0000
1100
0001
0010
0100
1000
0001
1000
0100
,
0010
0100
1000
0001
0010
0100
1000
0010
0100
0001
0010
0100
1000
0001
0010
0001
,
1000
0100
1000
0001
0010
0001
1000
0100
1000
0001
0010
0100
0010
0001
1000
0010
,
0100
0010
1000
0010
0100
0001
0010
0100
1000
0001
1000
0100
0010
0001
0100
0001
,
0010
0100
1000
0001
1000
0100
0010
0100
1000
0000
0001
0000
0100
0000
0010
0000
,
0100
0000
0001
0000
0010
0000
0100
0000
1002
0000
0100
0000
0010
0000
1000
0003
,
0210
0000
0001
0000
1000
0000
0010
0300
1000
0000
0010
0000
1100
0000
0001
0000
,
1010
0100
0011
1000
1100
0001
1001
0010
,
0110
0001
1100
0010
0001
0100
0011
1000
,
0110
1000
0101
0001
1010
0100
1100
0001
,
1001
0010
0110
0001
1000
0010
1100
0010
,
0110
0001
1100
1000
0101
0010
0101
1000
,
1001
0000
0100
0000
0011
0000
1000
0000
0220
0000
0000
0330
2020
0000
0000
3030
,
2002
0000
0000
3003
0022
0000
0000
0033
0220
0000
0000
0000
0000
0000
0000
0330
,
2020
0000
0000
0000
0000
0000
0000
3030
0100
0000
0010
0000
1001
0000
0100
0000
,
1100
0010
0101
0001
1100
0010
0110
1000
,
0011
0100
1010
0001
0100
0010
1100
0001
,
0011
0100
1010
0100
1100
0010
1001
0010
,
1001
0100
0110
1000
0001
0100
0011
1000
,
0101
0010
1100
0010
1001
0100
1100
0010
,
0011
0000
0001
0000
1100
0000
0010
0000
0201
0000
0010
0300
2010
0000
0100
3000
,
0012
0000
1000
0003
0210
0000
1000
0300
1002
0000
0010
0000
0100
0000
1000
0003
,
0210
0000
0001
0000
1000
0000
0001
0300
1020
0000
0100
0000
1000
0000
0001
0000
,
1000
0000
0100
0000
0001
0000
1000
0030
0101
0000
1000
0000
0010
0000
0100
0000
,
0010
1000
0100
0001
1010
0100
0110
0001
,
1100
0010
0101
1000
1100
0010
0100
0001
,
1001
0010
0100
1000
0011
0100
1010
0100
,
0101
1000
0011
0100
1010
0100
1000
0001
,
0011
1000
0001
0100
1001
0010
1100
0001
,
0110
1000
1100
0010
1001
0010
0100
1000
,
0100
0001
0011
1000
0201
0000
0320
0000
,
2030
0000
0000
0000
3200
0000
0000
0300
1001
0000
0010
0000
0100
0000
0010
0000
,
0001
1000
0010
0100
0011
1000
0010
1000
,
0101
0001
0110
1000
1001
0100
0010
1000
,
0101
0010
0001
1000
0011
0100
1100
0010
,
1010
0100
1001
0001
0110
1000
0100
0010
,
1100
0001
0100
0001
0101
1000
0011
0100
,
0101
1000
0110
1000
1100
0010
0001
1000
,
0100
0000
0010
0000
1001
0000
0010
0000
2200
0000
0000
3300
0202
0000
0000
0303
,
1100
0010
0001
0100
0010
1000
0100
1000
0202
0000
0000
0000
0000
0303
0110
0000
,
1100
0000
0000
0000
0010
0000
0100
0000
0220
0000
0000
0000
0000
0330
1100
0000
,
1010
0000
0000
0000
0001
0000
0000
0000
0110
0001
0010
0100
1000
0010
0100
0001
,
0010
0100
1000
0001
0100
0001
1000
0100
0010
0100
1000
0001
0010
0100
0010
0001
,
1000
0001
0100
0010
0100
0001
0010
0100
0010
0001
0100
0010
0100
0001
0010
0100
,
1000
0010
0100
0010
1000
0100
1000
0001
0100
0001
1000
0010
1000
0100
0010
0001
,
0100
0010
1000
0100
0010
0001
1000
0010
1000
0000
0100
0000
0010
0000
0100
0000
,
1000
0001
0010
0001
1000
0010
1000
0100
,
0010
0000
0001
0000
0100
0000
0010
0000
2200
0000
0000
0000
0000
3300
1001
0000
,
0110
0000
0000
0000
1000
0000
0010
0000
0022
0000
0000
0000
0000
0033
1100
0000
,
0101
0000
0000
0000
0100
0000
0000
0000
0101
0010
0100
1000
0100
0010
0001
0100
,
0001
0010
0100
1000
0001
0010
0100
0010
0001
1000
0010
0100
0010
1000
0010
0100
,
0001
0010
0100
1000
0001
0100
0010
0100
0001
0100
0010
0100
0001
0010
0100
1000
,
0001
0100
0010
1000
0100
0010
0001
1000
0010
0100
0001
1000
0010
1000
0001
0100
,
0001
1000
0100
1000
0010
0100
0001
0010
0001
0000
1000
0000
0100
0000
0010
0000
,
0100
0000
1000
0000
0001
0000
0100
0000
0021
0000
0100
0000
0001
0000
1000
0030
,
0201
0000
1000
0000
0010
0000
0001
0300
1010
0000
0100
0000
1000
0000
0001
0000
,
1000
0010
1000
0100
1000
0100
0010
0001
,
0010
1000
0010
0001
0010
0100
0001
1000
,
0001
0010
0001
1000
0001
0010
0100
0001
,
0100
1000
0100
0010
0100
0001
1000
0100
,
1000
0010
1000
0001
1000
0100
0010
0001
,
0010
1000
0010
0100
0010
0100
0001
0010
,
0001
1000
0001
0010
0001
1000
0010
0100
,
0010
0001
0010
1000
0010
0100
0010
1000
,
0010
1000
0010
1000
0010
1000
0010
1000
0010
0000
0000
0000
0000
0000
0000
0000
,
1000
0100
0010
0001
0100
0001
0010
0100
1000
0100
0010
0001
1000
0010
0100
0010
,
1000
0001
0010
0100
1000
0001
0010
0100
0010
0001
1000
0100
1000
0001
0100
0001
,
1000
0010
1000
0100
0010
0100
1000
0001
1000
0010
0100
0010
1000
0100
0010
0001
,
1000
0010
0100
0001
0100
0010
1000
0010
0200
0000
0000
0000
0000
0000
0000
0300
,
0011
1000
0100
0020
,
0031
0100
0001
1000
0010
0100
1000
0001
,
0100
0000
0010
0002
0000
0000
0000
0000
,
0000
0000
0000
0000
,
0203
0000
2300
0000
,
3001
0100
0001
0000
0010
0000
0100
0000
1000
0000
0010
0000
0001
0000
0100
0000
,
0010
0000
0100
0000
1000
0000
0010
0000
0100
0010
1000
0000
0001
0000
0100
0000
,
0001
1000
0010
0001
0200
0000
0000
0300
,
1000
0010
0100
0001
0100
0010
1000
0100
0010
0001
0100
0010
1000
0000
0010
0000
,
1000
0001
0010
0200
0000
0000
0310
0001
,
1000
0010
0100
0002
0000
0000
0000
0013
,
0100
1000
0010
0100
0010
1000
0100
0010
0100
1000
0001
0100
0001
0010
0100
1000
,
0001
0100
0010
1000
0100
0010
0001
0100
0010
1000
0100
0010
0100
1000
0001
1000
,
0010
0100
0010
1000
0001
0010
0100
0010
0002
0000
0000
0000
0000
0000
0000
0000
,
0013
0100
1000
0001
1000
0100
0010
0100
1000
0001
0010
0100
0010
0001
1000
0001
,
0100
0010
0100
0001
1000
0010
1000
0001
0020
0000
0000
0000
0000
0000
0000
0030
,
2100
0000
3100
0010
0100
1000
0001
0201
,
0000
0000
0310
1000
0100
1000
0010
0001
,
0110
1000
0010
0100
0001
0010
1000
0012
,
0000
0000
0013
1000
0100
1000
0010
0100
,
2001
0000
3100
0010
0001
1000
0010
1002
,
0000
0000
0103
0000
0010
0000
1000
0000
0100
0000
0001
0000
0020
0000
0000
0030
,
1200
0000
1300
0010
0100
0001
1000
0120
,
0000
0000
1030
0000
0100
0000
0010
0000
0200
0000
0000
0000
0000
0000
0000
0300
,
0021
1000
0001
1000
0031
0100
0010
0001
,
1010
0100
0011
0010
1100
1000
1001
0010
,
0110
0001
1000
0010
2010
0100
0010
3001
,
0110
1000
0011
0100
1100
0010
0101
1000
,
0011
0010
0100
1000
0110
0001
1000
0010
,
1100
0010
0101
1000
0011
0100
0110
1000
,
0201
1000
0010
0001
1000
0310
1100
0010
,
2100
0001
0100
0010
3100
0001
0010
1000
,
0120
1000
0001
0100
0031
1000
0010
0100
,
0021
0100
1000
0031
1100
0010
0110
1000
,
0011
0100
1000
0010
1200
0001
1000
0301
,
0011
0100
1010
0100
0011
1000
1001
0100
,
0011
1000
0010
1000
0110
0001
1000
0010
,
1100
0001
0101
0001
0110
0100
1010
0100
,
0012
1000
0010
0100
0010
1003
0110
1000
,
0011
0000
1000
0010
0100
0000
0010
0000
1000
0000
0100
0000
0010
0000
1000
0000
,
0202
0000
0000
0000
0000
0303
1100
0000
0110
0000
0000
0000
1000
0000
0010
0000
,
2200
0000
0000
0000
0000
3300
1010
0000
1001
0000
0000
0000
0010
0000
0000
0000
,
1001
0100
0010
0100
1000
0001
0100
0010
0100
0001
1000
0010
1000
0001
0100
0001
,
1000
0010
1000
0001
0100
0001
0010
0100
1000
0001
1000
0100
0010
0001
1000
0100
,
0010
0100
1000
0010
0100
0001
0010
0100
0010
0001
1000
0010
1000
0001
0010
0100
,
1000
0010
0100
0001
0010
0100
1000
0001
1000
0100
0010
0001
0010
0100
1000
0100
,
0010
0001
1000
0010
1000
0100
1000
0001
,
0010
0000
0001
0010
0100
1000
0010
0100
0010
1000
0100
1000
0010
0100
0010
1000
,
0220
0000
0000
0000
0000
0330
1001
0000
0110
0000
0000
0000
0001
0000
1000
0000
,
2002
0000
0000
0000
0000
3003
0101
0000
0011
0000
0000
0000
1000
0000
0000
0000
,
1010
0100
0010
0001
0100
0010
0100
0001
0010
0100
0010
0001
1000
0001
0100
0010
,
0100
0001
1000
0100
0010
0001
0100
0010
1000
0100
0010
0001
1000
0100
1000
0010
,
0100
0001
0010
0001
0100
0010
1000
0100
1000
0001
0100
0010
1000
0010
0100
0001
,
0100
0010
1000
0100
0010
0001
0100
0010
1000
0010
0100
0001
0010
0001
1000
0010
,
1000
0010
1000
0001
0100
0001
1000
0001
,
0210
0001
1000
0310
2001
0010
0100
3010
,
0101
1000
0010
0100
0010
0001
1010
1100
,
0011
0100
1000
0010
1001
0101
0110
0011
,
1010
0100
0001
1000
0001
0010
0101
1100
,
0011
1000
0100
0001
1100
0011
0110
1010
,
1001
0010
0100
0001
0110
1100
1001
0101
,
1010
0100
0001
1000
0011
0110
1100
0101
,
0011
1000
0010
0100
1001
0010
0100
1000
,
0110
0101
1100
0110
1001
1100
0110
1001
,
0011
0000
0110
0000
1100
0000
1001
0000
0101
0010
0100
0010
0100
0010
0100
0010
,
0100
1000
0100
0010
0100
0001
0100
1000
,
0200
0001
1000
0310
1000
0100
1000
0001
,
2000
0010
0001
3100
0001
0010
0001
1000
,
0002
0010
0100
1003
0100
0001
0100
0010
,
0200
1000
0010
1300
0010
0001
0010
0100
,
0020
0100
1000
0031
1000
0010
1000
0001
,
2000
0100
0010
3100
0010
1000
0010
0001
,
0010
0100
1000
0010
1000
0001
1000
0010
,
1000
0000
0001
0000
1000
0000
0100
0000
1000
0010
1000
0010
1000
0010
1000
0010
,
2000
0000
0000
0000
0000
0000
0000
3000
0110
0001
1000
0010
1000
0100
0010
0001
,
1010
0100
0010
0001
1000
0010
1000
0001
0110
1000
0001
0100
0001
1000
0010
1000
,
0011
0100
1000
0010
0100
0001
0100
0010
1100
0001
0010
0100
1000
0010
1000
0001
,
1010
0100
0010
0001
1000
0010
0100
0001
0220
0000
0000
0330
0202
0000
0000
0303
,
2200
0000
0000
0000
0000
0000
0000
3300
0101
0010
0100
1000
0011
0100
1000
0001
,
0110
1000
0001
1000
0011
0100
1000
0010
1100
0010
0001
1000
0101
0010
0100
1000
,
0110
0001
0010
0100
1001
0010
0100
1000
0011
1000
0100
0010
1001
0100
0010
0001
,
1010
0100
0010
0100
1001
0010
0100
1000
0022
0000
0000
0033
0202
0000
0000
0303
,
0110
0000
0000
0000
;
